Hello (2017) 720p WEB-DL Dual Audio [Hindi – Telugu] x264 AAC Esub

Format : Matroska
Format version : Version 4 / Version 2
File size : 973 MiB
Duration : 2 h 0 min
Overall bit rate : 1 125 kb/s
Movie name : Hello (2017) 720p WEB-DL Dual Audio [Hindi – Telugu] x264 AAC Esub HdFree4U.INfo

Video
ID : 1
Format : AVC
Format/Info : Advanced Video Codec
Format profile : [email protected]
Format settings : CABAC / 4 Ref Frames
Format settings, CABAC : Yes
Format settings, RefFrames : 4 frames
Codec ID : V_MPEG4/ISO/AVC
Duration : 2 h 0 min
Bit rate : 900 kb/s
Width : 1 280 pixels
Height : 544 pixels
Display aspect ratio : 2.35:1
Frame rate mode : Constant
Frame rate : 23.976 (24000/1001) FPS
Color space : YUV
Chroma subsampling : 4:2:0
Bit depth : 8 bits
Scan type : Progressive
Bits/(Pixel*Frame) : 0.054
Stream size : 779 MiB (80%)
Title : Hello (2017) 720p WEB-DL Dual Audio [Hindi – Telugu] x264 AAC Esub HdFree4U.INfo
Writing library : x264 core 148 r2708 86b7198
Language : Telugu
Default : Yes
Forced : No
Color range : Limited
Color primaries : BT.709
Transfer characteristics : BT.709
Matrix coefficients : BT.709

Audio #1
ID : 2
Format : AAC
Format/Info : Advanced Audio Codec
Format profile : HE-AAC / LC
Format settings : Explicit
Codec ID : A_AAC-2
Duration : 2 h 0 min
Bit rate : 127 kb/s
Channel(s) : 2 channels
Channel positions : Front: L R
Sampling rate : 48.0 kHz / 24.0 kHz
Frame rate : 23.438 FPS (1024 SPF)
Compression mode : Lossy
Stream size : 110 MiB (11%)
Title : HdFree4U.INfo
Language : Hindi
Default : Yes
Forced : Yes

Audio #2
ID : 3
Format : AAC
Format/Info : Advanced Audio Codec
Format profile : HE-AAC / LC
Format settings : Explicit
Codec ID : A_AAC-2
Duration : 2 h 0 min
Bit rate : 96.0 kb/s
Channel(s) : 2 channels
Channel positions : Front: L R
Sampling rate : 48.0 kHz / 24.0 kHz
Frame rate : 23.438 FPS (1024 SPF)
Compression mode : Lossy
Stream size : 82.5 MiB (8%)
Title : HdFree4U.INfo
Language : Telugu
Default : No
Forced : No

Text
ID : 4
Format : UTF-8
Codec ID : S_TEXT/UTF8
Codec ID/Info : UTF-8 Plain Text
Duration : 1 h 59 min
Bit rate : 58 b/s
Count of elements : 1555
Stream size : 51.1 KiB (0%)
Title : HdFree4U.INfo
Language : English
Default : Yes
Forced : Yes

edd429f1adf2c8c53fe0b9ebfcefbbb5bb09e288507afaed.jpg

-Download Links-

720p – 900 MB

Leave a Comment

Your email address will not be published. Required fields are marked *