Avengers Age of Ultron (2015) 1080p BluRay Dual Audio [Hindi – English] Movie

Avengers Age of Ultron (2015) 1080p BluRay Hindi DD 5.1Ch – Eng DD 5.1Ch Free download Full Movie With Multiple Direct Download Links

PG-13 | 2h 21min | ActionAdventureSci-Fi | 1 May 2015 (USA)
Avengers: Age of Ultron (2015) on IMDb 7.4/10 
When Tony Stark and Bruce Banner try to jump-start a dormant peacekeeping program called Ultron, things go horribly wrong and it’s up to Earth’s mightiest heroes to stop the villainous Ultron from enacting his terrible plan.

Director: Joss Whedon

Writers: Joss WhedonStan Lee (based on the Marvel comics by) | 4 more credits »

Stars: Robert Downey Jr.Chris EvansMark Ruffalo | See full cast & crew »

:: Screenshots ::

Click On Image To View Full Original Images

:: Multiple Direct Download Links ::

Torrent Download

Download Sample

1080p BluRay 12 GB ( 6+ Links )

 

Media Information

Format                      : Matroska
Format version              : Version 4 / Version 2
File size                   : 11.1 GiB
Duration                    : 2 h 21 min
Overall bit rate            : 11.3 Mb/s
Movie name                  : MANN KT

Video
ID                          : 1
Format                      : AVC
Format/Info                 : Advanced Video Codec
Format profile              : [email protected]
Format settings, CABAC      : Yes
Format settings, ReFrames   : 5 frames
Codec ID                    : V_MPEG4/ISO/AVC
Duration                    : 2 h 21 min
Bit rate                    : 10 000 kb/s
Width                       : 1 920 pixels
Height                      : 804 pixels
Display aspect ratio        : 2.40:1
Frame rate mode             : Constant
Frame rate                  : 23.976 (24000/1001) FPS
Color space                 : YUV
Chroma subsampling          : 4:2:0
Bit depth                   : 8 bits
Scan type                   : Progressive
Bits/(Pixel*Frame)          : 0.270
Stream size                 : 9.87 GiB (89%)
Title                       : MANN KT
Language                    : English
Default                     : Yes
Forced                      : No
Color range                 : Limited
Color primaries             : BT.709
Transfer characteristics    : BT.709
Matrix coefficients         : BT.709

Audio #1
ID                          : 2
Format                      : AC-3
Format/Info                 : Audio Coding 3
Mode extension              : CM (complete main)
Format settings, Endianness : Big
Codec ID                    : A_AC3
Duration                    : 2 h 21 min
Bit rate mode               : Constant
Bit rate                    : 640 kb/s
Channel(s)                  : 6 channels
Channel positions           : Front: L C R, Side: L R, LFE
Sampling rate               : 48.0 kHz
Frame rate                  : 31.250 FPS (1536 spf)
Bit depth                   : 16 bits
Compression mode            : Lossy
Stream size                 : 647 MiB (6%)
Title                       : MANN KT
Language                    : Hindi
Default                     : Yes
Forced                      : No

Audio #2
ID                          : 3
Format                      : AC-3
Format/Info                 : Audio Coding 3
Mode extension              : CM (complete main)
Format settings, Endianness : Big
Codec ID                    : A_AC3
Duration                    : 2 h 21 min
Bit rate mode               : Constant
Bit rate                    : 640 kb/s
Channel(s)                  : 6 channels
Channel positions           : Front: L C R, Side: L R, LFE
Sampling rate               : 48.0 kHz
Frame rate                  : 31.250 FPS (1536 spf)
Bit depth                   : 16 bits
Compression mode            : Lossy
Stream size                 : 647 MiB (6%)
Title                       : MANN KT
Language                    : English
Default                     : No
Forced                      : No

Text
ID                          : 4
Format                      : PGS
Muxing mode                 : zlib
Codec ID                    : S_HDMV/PGS
Codec ID/Info               : Picture based subtitle format used on BDs/HD-DVDs
Duration                    : 2 h 12 min
Bit rate                    : 41.0 kb/s
Count of elements           : 4314
Stream size                 : 38.9 MiB (0%)
Title                       : MANN KT
Language                    : English
Default                     : No
Forced                      : No

Recent search terms:

Leave a Comment

Your email address will not be published. Required fields are marked *

This site uses Akismet to reduce spam. Learn how your comment data is processed.